ПРОСИМ ВАС ОБРАТИТЬ ВНИМАНИЕ НА ГЛАВНОЕ МЕНЮ НАШЕГО РЕСУРСА. В НЕМ ТЕПЕРЬ ЕСТЬ ССЫЛКИ НА НАШ ОБЫЧНЫЙ ТРЕКЕР HTTPS://DALMAKTRIS.COM . ВСЕ НАШИ САЙТЫ С 1 ФЕВРАЛЯ 2017 ГОДА ЗАЩИЩЕНЫ ЧЕРЕЗ HTTPS. А ЧТОБ САЙТ БЫСТРЕЕ ГРУЗИЛСЯ И БЫЛ БЕЗОПАСНЕЕ, ЗАЩИЩЁННЕЕ ОТ ХАКЕРСКИХ АТАК И ЗЛОУМЫШЛЕННИКОВ НАШИ DNS СЕРВЕРА ПЕРЕНЕСЕНЫ НА ОБЛАЧНЫЙ DNS. У НАС ТЕПЕРЬ НЕТ СТАТИЧНОГО IP АДРЕСА. DNS-CЕРВИС БУДЕТ ЗАГРУЖАТЬ САЙТ С БЛИЖАЙШЕГО К ВАМ ДАТА-ЦЕНТРА, ТАК КАК НАШИ СЕРВИСЫ УЖЕ ОБЛАЧНЫЕ. Что делать если в раздаче нет пиров и сидов, а скачать хочется? Это не проблема Порноэнжел работает по DHT. Информацию как качать по DHT смотрите в новостях от 01 февраля 2017 года.

Дрочливый Пивовар [2013 г., All Sex, creampie, beer, 1080p, CamRip]

Ответить на тему
 
Автор Сообщение

WhatTheFuck ®

Пол: Мужской

Стаж: 11 месяцев 8 дней

Сообщений: 2849

Откуда: CCCP

Создавать темы 20-Мар-2015 02:22

[Цитировать]

Дрочливый Пивовар

Год производства: 2013 г.
Жанр: All Sex, creampie, beer
Продолжительность: 00:57:17
Описание: КРАСНЫЙ ЭЛЕКТРИК!
Тип HD видео: 1080p
Качество видео: CamRip
Формат видео: MP4
Видео кодек: H.264/AVC
Аудио кодек: AAC
Видео:
ID : 2
Format : AVC
Format/Info : Advanced Video Codec
Format profile : Main@L4.0
Format settings, CABAC : Yes
Format settings, ReFrames : 3 frames
Format settings, GOP : M=4, N=15
Codec ID : avc1
Codec ID/Info : Advanced Video Coding
Duration : 57mn 17s
Bit rate mode : Variable
Bit rate : 12.0 Mbps
Maximum bit rate : 24.0 Mbps
Width : 1 920 pixels
Height : 1 080 pixels
Display aspect ratio : 16:9
Frame rate mode : Constant
Frame rate : 25.000 fps
Standard : NTSC
Color space : YUV
Chroma subsampling : 4:2:0
Bit depth : 8 bits
Scan type : Progressive
Bits/(Pixel*Frame) : 0.231
Stream size : 4.80 GiB (97%)
Аудио:
ID : 1
Format : AAC
Format/Info : Advanced Audio Codec
Format profile : LC
Codec ID : 40
Duration : 57mn 17s
Bit rate mode : Constant
Bit rate : 320 Kbps
Channel(s) : 2 channels
Channel positions : Front: L R
Sampling rate : 48.0 KHz
Compression mode : Lossy
Stream size : 133 MiB (3%)

Скриншоты


Последние поблагодарившие

[Профиль] [ЛС]
Показать сообщения:    
Ответить на тему

Текущее время: 20-Фев 02:25

Часовой пояс: UTC + 3



Вы не можете начинать темы
Вы не можете отвечать на сообщения
Вы не можете редактировать свои сообщения
Вы не можете удалять свои сообщения
Вы не можете голосовать в опросах
Вы не можете прикреплять файлы к сообщениям
Вы не можете скачивать файлы

Яндекс.Метрика