Дрочливый Пивовар [2013 г., All Sex, creampie, beer, 1080p, CamRip]

Ответить на тему
 
Автор Сообщение

WhatTheFuck ®

Пол: Мужской

Стаж: 10 месяцев 12 дней

Сообщений: 2720

Откуда: CCCP

Создавать темы 20-Мар-2015 02:22

[Цитировать]

Дрочливый Пивовар

Год производства: 2013 г.
Жанр: All Sex, creampie, beer
Продолжительность: 00:57:17
Описание: КРАСНЫЙ ЭЛЕКТРИК!
Тип HD видео: 1080p
Качество видео: CamRip
Формат видео: MP4
Видео кодек: H.264/AVC
Аудио кодек: AAC
Видео:
ID : 2
Format : AVC
Format/Info : Advanced Video Codec
Format profile : Main@L4.0
Format settings, CABAC : Yes
Format settings, ReFrames : 3 frames
Format settings, GOP : M=4, N=15
Codec ID : avc1
Codec ID/Info : Advanced Video Coding
Duration : 57mn 17s
Bit rate mode : Variable
Bit rate : 12.0 Mbps
Maximum bit rate : 24.0 Mbps
Width : 1 920 pixels
Height : 1 080 pixels
Display aspect ratio : 16:9
Frame rate mode : Constant
Frame rate : 25.000 fps
Standard : NTSC
Color space : YUV
Chroma subsampling : 4:2:0
Bit depth : 8 bits
Scan type : Progressive
Bits/(Pixel*Frame) : 0.231
Stream size : 4.80 GiB (97%)
Аудио:
ID : 1
Format : AAC
Format/Info : Advanced Audio Codec
Format profile : LC
Codec ID : 40
Duration : 57mn 17s
Bit rate mode : Constant
Bit rate : 320 Kbps
Channel(s) : 2 channels
Channel positions : Front: L R
Sampling rate : 48.0 KHz
Compression mode : Lossy
Stream size : 133 MiB (3%)

Скриншоты

[Профиль] [ЛС]
Показать сообщения:    
Ответить на тему

Текущее время: 23-Янв 15:37

Часовой пояс: UTC + 3



Вы не можете начинать темы
Вы не можете отвечать на сообщения
Вы не можете редактировать свои сообщения
Вы не можете удалять свои сообщения
Вы не можете голосовать в опросах
Вы не можете прикреплять файлы к сообщениям
Вы не можете скачивать файлы

Яндекс.Метрика Гей сайты Гей каталог BlueSystem.Ru