ПРОСИМ ВАС ОБРАТИТЬ ВНИМАНИЕ НА ГЛАВНОЕ МЕНЮ НАШЕГО РЕСУРСА. В НЕМ ТЕПЕРЬ ЕСТЬ ССЫЛКИ НА НАШ ОБЫЧНЫЙ ТРЕКЕР HTTPS://DALMAKTRIS.COM . ВСЕ НАШИ САЙТЫ С 1 ФЕВРАЛЯ 2017 ГОДА ЗАЩИЩЕНЫ ЧЕРЕЗ HTTPS. А ЧТОБ САЙТ БЫСТРЕЕ ГРУЗИЛСЯ И БЫЛ БЕЗОПАСНЕЕ, ЗАЩИЩЁННЕЕ ОТ ХАКЕРСКИХ АТАК И ЗЛОУМЫШЛЕННИКОВ НАШИ DNS СЕРВЕРА ПЕРЕНЕСЕНЫ НА ОБЛАЧНЫЙ DNS. У НАС ТЕПЕРЬ НЕТ СТАТИЧНОГО IP АДРЕСА. DNS-CЕРВИС БУДЕТ ЗАГРУЖАТЬ САЙТ С БЛИЖАЙШЕГО К ВАМ ДАТА-ЦЕНТРА, ТАК КАК НАШИ СЕРВИСЫ УЖЕ ОБЛАЧНЫЕ. Что делать если в раздаче нет пиров и сидов, а скачать хочется? Это не проблема Порноэнжел работает по DHT. Информацию как качать по DHT смотрите в новостях от 01 февраля 2017 года.

Deep Inside / Глубоко Внутри (Marty Stevens, Lukas Ridgeston, Lukas Ridgestone / BelAmi Online) [2012 г., Twinks, Bareback, Muscles, Big Dick, Oral/Anal Sex, Threesome, Group, Rimming, Masturbation, Cumshot, DVDRip]

Ответить на тему
 
Автор Сообщение

WhatTheFuck ®

Пол: Мужской

Стаж: 11 месяцев 8 дней

Сообщений: 2849

Откуда: CCCP

Создавать темы 29-Мар-2015 16:18

[Цитировать]

Deep Inside / Глубоко Внутри

Год производства: 2012 г.
Страна: Czech Republic
Жанр: Twinks, Bareback, Muscles, Big Dick, Oral/Anal Sex, Threesome, Group, Rimming, Masturbation, Cumshot
Продолжительность: 01:49:31
Режиссер: Marty Stevens, Lukas Ridgeston
Студия: Lukas Ridgestone / BelAmi Online
В ролях: Jack Harrer, Roger Lambert, Phillipe Gaudin, Manuel Rios, Jim Kerouac, Marlon Mureno, Jaco Van Sant, Harris Hilton, Jini Kerouac, Luke Hamill, Erik Bouna, Alex Orioli
Описание: Some work hard... All play harder! Join these hot boys and go deep inside their sexual adventures.
Качество видео: DVDRip
Формат видео: AVI
Видео кодек: XviD
Аудио кодек: MP3
Видео: MPEG-4 Visual (XviD), 720x416, 29.970 fps, 2 237 Kbps
Аудио: MP3, 48.0 KHz, 2 channels, Joint stereo, 172 Kbps

Скриншоты

MediaInfo

General
Format : AVI
Format/Info : Audio Video Interleave
File size : 1.85 GiB
Duration : 1h 49mn
Overall bit rate mode : Variable
Overall bit rate : 2 423 Kbps
Writing application : VirtualDubMod 1.5.4.1 (build 2178/release)
Writing library : VirtualDubMod build 2178/release
Video
ID : 0
Format : MPEG-4 Visual
Format profile : Advanced Simple@L5
Format settings, BVOP : 1
Format settings, QPel : No
Format settings, GMC : No warppoints
Format settings, Matrix : Custom
Codec ID : XVID
Codec ID/Hint : XviD
Duration : 1h 49mn
Bit rate : 2 237 Kbps
Width : 720 pixels
Height : 416 pixels
Display aspect ratio : 16:9
Frame rate : 29.970 fps
Color space : YUV
Chroma subsampling : 4:2:0
Bit depth : 8 bits
Scan type : Progressive
Compression mode : Lossy
Bits/(Pixel*Frame) : 0.249
Stream size : 1.71 GiB (92%)
Writing library : XviD 1.2.1 (UTC 2008-12-04)
Audio
ID : 1
Format : MPEG Audio
Format version : Version 1
Format profile : Layer 3
Mode : Joint stereo
Mode extension : MS Stereo
Codec ID : 55
Codec ID/Hint : MP3
Duration : 1h 49mn
Bit rate mode : Variable
Bit rate : 172 Kbps
Nominal bit rate : 192 Kbps
Channel(s) : 2 channels
Sampling rate : 48.0 KHz
Compression mode : Lossy
Stream size : 135 MiB (7%)
Alignment : Aligned on interleaves
Interleave, duration : 24 ms (0.72 video frame)
Interleave, preload duration : 107 ms
Writing library : LAME3.98r
Encoding settings : -m j -V 4 -q 2 -lowpass 18.6 --abr 192


Последние поблагодарившие

[Профиль] [ЛС]
Показать сообщения:    
Ответить на тему

Текущее время: 20-Фев 04:42

Часовой пояс: UTC + 3



Вы не можете начинать темы
Вы не можете отвечать на сообщения
Вы не можете редактировать свои сообщения
Вы не можете удалять свои сообщения
Вы не можете голосовать в опросах
Вы не можете прикреплять файлы к сообщениям
Вы не можете скачивать файлы

Яндекс.Метрика