ПРОСИМ ВАС ОБРАТИТЬ ВНИМАНИЕ НА ГЛАВНОЕ МЕНЮ НАШЕГО РЕСУРСА. В НЕМ ТЕПЕРЬ ЕСТЬ ССЫЛКИ НА НАШ ОБЫЧНЫЙ ТРЕКЕР HTTPS://DALMAKTRIS.COM . ВСЕ НАШИ САЙТЫ С 1 ФЕВРАЛЯ 2017 ГОДА ЗАЩИЩЕНЫ ЧЕРЕЗ HTTPS. А ЧТОБ САЙТ БЫСТРЕЕ ГРУЗИЛСЯ И БЫЛ БЕЗОПАСНЕЕ, ЗАЩИЩЁННЕЕ ОТ ХАКЕРСКИХ АТАК И ЗЛОУМЫШЛЕННИКОВ НАШИ DNS СЕРВЕРА ПЕРЕНЕСЕНЫ НА ОБЛАЧНЫЙ DNS. У НАС ТЕПЕРЬ НЕТ СТАТИЧНОГО IP АДРЕСА. DNS-CЕРВИС БУДЕТ ЗАГРУЖАТЬ САЙТ С БЛИЖАЙШЕГО К ВАМ ДАТА-ЦЕНТРА, ТАК КАК НАШИ СЕРВИСЫ УЖЕ ОБЛАЧНЫЕ. Что делать если в раздаче нет пиров и сидов, а скачать хочется? Это не проблема Порноэнжел работает по DHT. Информацию как качать по DHT смотрите в новостях от 01 февраля 2017 года.

Woman & Young Boy Compilation - Подростковые мечты о зрелых тетках [Erotica, Compilation, Woman & Young Boy, Music Video]

Ответить на тему
 
Автор Сообщение

WhatTheFuck ®

Пол: Мужской

Стаж: 11 месяцев 9 дней

Сообщений: 2866

Откуда: CCCP

Создавать темы 08-Мар-2015 08:53

[Цитировать]

Woman & Young Boy Compilation


Жанр:
Erotica, Compilation, Music Video, Mature Woman & Young Boy.
Описание: Подростковые мечты о зрелых тетках. Первые сиськи и все такое.
Нарезка из художественных фильмов XX века. Автор, к сожалению, неизвестен.

Тех данные

Видео: Windows Media Video 9 720x576 25fps 768kbps
ID : 2
Format : VC-1
Format profile : MP@ML
Codec ID : WMV3
Codec ID/Info : Windows Media Video 9
Codec ID/Hint : WMV3
Description of the codec : Windows Media Video 9
Duration : 13mn 58s
Bit rate mode : Constant
Bit rate : 768 Kbps
Width : 720 pixels
Height : 576 pixels
Display aspect ratio : 5:4
Frame rate : 25.000 fps
Standard : PAL
Bit depth : 8 bits
Scan type : Progressive
Compression mode : Lossy
Bits/(Pixel*Frame) : 0.074
Stream size : 76.8 MiB (85%)
Аудио: Windows Media Audio 44100Hz stereo 128kbps
ID : 1
Format : WMA
Format version : Version 2
Codec ID : 161
Codec ID/Info : Windows Media Audio
Description of the codec : Windows Media Audio 9.1 - 128 kbps, 44 kHz, stereo (A/V) 1-pass CBR
Duration : 13mn 58s
Bit rate mode : Constant
Bit rate : 128 Kbps
Channel(s) : 2 channels
Sampling rate : 44.1 KHz
Bit depth : 16 bits
Stream size : 12.8 MiB (14%)

Скринлист


Последние поблагодарившие

[Профиль] [ЛС]
Показать сообщения:    
Ответить на тему

Текущее время: 20-Фев 23:10

Часовой пояс: UTC + 3



Вы не можете начинать темы
Вы не можете отвечать на сообщения
Вы не можете редактировать свои сообщения
Вы не можете удалять свои сообщения
Вы не можете голосовать в опросах
Вы не можете прикреплять файлы к сообщениям
Вы не можете скачивать файлы

Яндекс.Метрика